chào mừng đến với diễn đàn Đ5-ĐTVT-EPU

DIỄN ĐÀN SINH VIÊN LỚP Đ5-ĐTVT-ĐẠI HỌC ĐIỆN LỰC
 
Trang ChínhCalendarTrợ giúpTìm kiếmThành viênNhómĐăng kýĐăng Nhập
Latest topics
» Bán Chung Cư BMM Xa La 62m,63m,74m,76m Chiết Khấu Cao (0938.83.8686)
Tue Jun 26, 2012 12:01 pm by linhbds

» Bán Chung Cư Golden Palace Mễ Trì Thấp Hơn 2 Giá (0972.493.943)
Tue Jun 26, 2012 12:00 pm by linhbds

» BỘ GIÁO TRÌNH "NEW CUTTING EDGE" GỒM CD+BOOK+CD-ROM CỰC QUÝ
Thu Apr 26, 2012 4:42 pm by raincow

» Trắc Nghiệm Tình Yêu
Wed Dec 14, 2011 9:37 pm by mrxemboi

» Độc quyền bán chung cư N04. Bán giá gốc không chênh
Wed Nov 30, 2011 8:59 pm by hathubds

» HÃY GÓP Ý VỚI CHÚNG TÔI
Sat Nov 19, 2011 10:41 pm by nguyenquocquan

» Bán chung cư Golden Palace Mễ Trì. Giá gốc + tặng ôtô Kia. Phân phối độc quyền.
Sat Nov 19, 2011 12:46 pm by hathubds

» hè sang! bạn tôi ơi có nhớ?!??
Fri Nov 18, 2011 10:32 am by thanhluanvt1

» hướng dẫn unlock điện thoại beeline bằng TAY
Tue Oct 25, 2011 4:29 pm by Admin

»  từ điển tiếng Anh Lạc Việt MTD9 EVA 2009 mới nhất full+crack
Mon Oct 24, 2011 7:32 pm by Admin

» Hỏi lớp học tiếng Trung
Thu Oct 20, 2011 5:27 pm by china0693

» Học làm doanh nhân
Thu Oct 13, 2011 9:55 pm by BigT

» Phụ nữ để mất trinh là mang tội... bất nghĩa, bất trung, bất hiếu!?
Sun Oct 09, 2011 3:10 pm by Admin

» Bạn thích con gái mặc đồ gì?
Tue Oct 04, 2011 6:49 pm by chémgióbang

» diem tieng anh
Mon Aug 22, 2011 7:30 am by BinhLee

từ điển đa ngôn ngữ
Từ điển online




MÁY TÍNH ĐIỆN TỬ

LỜI HAY Ý ĐẸP

 "Better learn your friend than your teacher!"

-Học thầy không tầy học bạn!-

-Sưu tầm-

Danh ng�n tiếng Anh




Share | 
 

 [Multi] Cười Xuân Nam Bắc 2011 PAL DVDrip x264-SDvB - Hàng gọn nhẹ chất lượng cao

Xem chủ đề cũ hơn Xem chủ đề mới hơn Go down 
Tác giảThông điệp
Admin
siêu cup
siêu cup
avatar

Tổng số bài gửi : 646
điểm : 15963
danh vọng : 6
Join date : 12/01/2011
Age : 26
Đến từ : phú thọ

Bài gửiTiêu đề: [Multi] Cười Xuân Nam Bắc 2011 PAL DVDrip x264-SDvB - Hàng gọn nhẹ chất lượng cao    Fri Jan 21, 2011 7:09 pm

[Multi] Cười Xuân Nam Bắc 2011 PAL DVD x264-SDvB




General
UniqueID : 230338375358925587850222494904505307967 (0xAD498EB4AF3948989EF7F4AA0347933F)
Complete name : D:\MOVIE\Cuoi Xuan Nam Bac 2011 PAL DVD x264-SDvB.mkv
Format : Matroska
File size : 436 MiB
Duration : 56mn 20s
Overall bit rate : 1 082 Kbps
Encoded date : UTC 2011-01-14 05:06:13
Writing application : mkvmerge v4.4.0 ('Die Wiederkehr') built on Oct 31 2010 21:52:48
Writing library : libebml v1.0.0 + libmatroska v1.0.0

Video
ID : 1
Format : AVC
Format/Info : Advanced Video Codec
Format profile : High@L3.1
Format settings, CABAC : Yes
Format settings, ReFrames : 7 frames
Format settings, GOP : M=3, N=18
Codec ID : V_MPEG4/ISO/AVC
Duration : 56mn 20s
Bit rate : 837 Kbps
Width : 720 pixels
Height : 428 pixels
Display aspect ratio : 16:9
Frame rate : 25.000 fps
Color space : YUV
Chroma subsampling : 4:2:0
Bit depth : 8 bits
Scan type : Progressive
Bits/(Pixel*Frame) : 0.109
Stream size : 337 MiB (77%)
Writing library : x264 core 112 r1867 22bfd31
Encoding settings : cabac=1 / ref=7 / deblock=1:-2:-2 /
analyse=0x3:0x113 / me=umh / subme=9 / psy=1 / psy_rd=1.00:0.00 /
mixed_ref=1 / me_range=16 / chroma_me=1 / trellis=2 / 8x8dct=1 / cqm=0 /
deadzone=21,11 / fast_pskip=0 / chroma_qp_offset=-2 / threads=12 /
sliced_threads=0 / nr=0 / decimate=0 / interlaced=0 /
constrained_intra=0 / bframes=6 / b_pyramid=2 / b_adapt=2 / b_bias=0 /
direct=3 / weightb=1 / open_gop=0 / weightp=2 / keyint=250 /
keyint_min=25 / scenecut=40 / intra_refresh=0 / rc_lookahead=40 / rc=crf
/ mbtree=1 / crf=22.0 / qcomp=0.60 / qpmin=0 / qpmax=51 / qpstep=4 /
ip_ratio=1.40 / aq=1:0.80
Language : Vietnamese

Audio
ID : 2
Format : MPEG Audio
Format version : Version 1
Format profile : Layer 2
Codec ID : A_MPEG/L2
Codec ID/Hint : MP2
Duration : 56mn 20s
Bit rate mode : Constant
Bit rate : 224 Kbps
Channel(s) : 2 channels
Sampling rate : 48.0 KHz
Compression mode : Lossy
Stream size : 90.3 MiB (21%)
Language : Vietnamese

Text
ID : 3
Format : UTF-8
Codec ID : S_TEXT/UTF8
Codec ID/Info : UTF-8 Plain Text
Language : Vietnamese





MF:
[You must be registered and logged in to see this link.]


Mega.1280:
[You must be registered and logged in to see this link.]


Đã fix link
pass giải nén: all.hdvnbits.org
*************

_________________
Ừ thì em sành điệu
Đồ em mặc toàn hàng hiệu
Em vung tay sài tiền triệu
Em nhìn người bằng đôi mắt kênh kiệu
..........................................
Nhưng với anh.. em chỉ là phế liệu
Về Đầu Trang Go down
Xem lý lịch thành viên http://d5dtvt.tk
 

[Multi] Cười Xuân Nam Bắc 2011 PAL DVDrip x264-SDvB - Hàng gọn nhẹ chất lượng cao

Xem chủ đề cũ hơn Xem chủ đề mới hơn Về Đầu Trang 

 Similar topics

-
» Nagra CA với giải pháp multiroom
» BẢN CRACK MỚI CHO KIS 2011 Cập nhật ngày 01/10/2010
» làm sao dò thuanviet trong dth
» Google Earth-xem bản đồ và... qua vệ tinh
» FPT dự kiến năm 2011 phóng vệ tinh đầu tiên
Trang 1 trong tổng số 1 trang

Permissions in this forum:Bạn không có quyền trả lời bài viết
chào mừng đến với diễn đàn Đ5-ĐTVT-EPU :: GIẢI TRÍ :: GÓC VUI CƯỜI-
Chuyển đến 
LIÊN HỆ QUẢNG CÁO
0912482537 Y!M: o912482537